<?xml version="1.0" standalone="no"?>
<!DOCTYPE svg PUBLIC "-//W3C//DTD SVG 1.1//EN" "http://www.w3.org/Graphics/SVG/1.1/DTD/svg11.dtd" >
<svg xmlns="http://www.w3.org/2000/svg" xmlns:xlink="http://www.w3.org/1999/xlink" version="1.1">
<metadata></metadata>
<defs>
<font id="kit_boldbold" horiz-adv-x="763" >
<font-face units-per-em="2048" ascent="1538" descent="-510" />
<missing-glyph horiz-adv-x="358" />
<glyph horiz-adv-x="0" />
<glyph horiz-adv-x="682" />
<glyph unicode=" "  horiz-adv-x="358" />
<glyph unicode="&#x09;" horiz-adv-x="358" />
<glyph unicode="&#xa0;" horiz-adv-x="358" />
<glyph unicode="!" horiz-adv-x="577" d="M154 135q0 57 39 96t96 39q56 0 95.5 -39t39.5 -96q0 -55 -39.5 -94t-95.5 -39q-57 0 -96 38.5t-39 94.5zM168 379v915h240v-915h-240z" />
<glyph unicode="&#x22;" horiz-adv-x="2201" />
<glyph unicode="#" horiz-adv-x="2048" />
<glyph unicode="$" horiz-adv-x="2048" />
<glyph unicode="%" horiz-adv-x="1406" d="M51 997q0 115 75.5 200t188.5 97v-592q-113 12 -188.5 96.5t-75.5 198.5zM385 25l594 1269l49 -22l-596 -1270zM453 702v592q113 -12 188.5 -97t75.5 -200q0 -114 -75.5 -198.5t-188.5 -96.5zM690 299q0 114 75.5 198.5t188.5 96.5v-592q-113 12 -188.5 97t-75.5 200z M1092 2v592q111 -12 187.5 -97t76.5 -198q0 -115 -76.5 -200t-187.5 -97z" />
<glyph unicode="&#x26;" horiz-adv-x="1021" d="M154 324q0 125 83 217t205 106v-645q-122 12 -205 105t-83 217zM178 997q0 115 75.5 200t188.5 97v-592q-113 12 -188.5 96t-75.5 199zM580 2v322v55q0 125 83 217t205 106v-323v-55q0 -124 -83 -217t-205 -105zM580 702v592q113 -12 188.5 -97t75.5 -200t-75.5 -199 t-188.5 -96z" />
<glyph unicode="'" horiz-adv-x="342" d="M51 834v485h240v-215q0 -55 -13 -99.5t-31.5 -72t-45 -48t-48 -29.5t-45 -14.5t-32 -6t-13.5 -0.5h-12z" />
<glyph unicode="(" horiz-adv-x="546" d="M154 55v1186q0 55 13 99t31.5 71.5t44.5 47.5t47.5 29t45 14.5t32 6t13.5 0.5h12v-1724h-12q-5 0 -13.5 0.5t-32 6t-45 14.5t-47.5 29.5t-44.5 48t-31.5 72t-13 99.5z" />
<glyph unicode=")" horiz-adv-x="546" d="M154 -215v1724h12q5 0 13.5 -0.5t32 -6t45 -14.5t47.5 -29t44.5 -47.5t31.5 -71.5t13 -99v-1186q0 -55 -13 -99.5t-31.5 -72t-44.5 -48t-47.5 -29.5t-45 -14.5t-32 -6t-13.5 -0.5h-12z" />
<glyph unicode="*" horiz-adv-x="2048" />
<glyph unicode="+" horiz-adv-x="2048" />
<glyph unicode="," horiz-adv-x="342" d="M51 -215v485h240v-215q0 -55 -13 -99.5t-31.5 -72t-45 -48t-48 -29.5t-45 -14.5t-32 -6t-13.5 -0.5h-12z" />
<glyph unicode="-" horiz-adv-x="503" d="M51 190v107h402v-107h-402z" />
<glyph unicode="." horiz-adv-x="372" d="M51 135q0 57 39 96t96 39q56 0 96 -39t40 -96q0 -55 -40 -94t-96 -39q-57 0 -96 38.5t-39 94.5z" />
<glyph unicode="/" horiz-adv-x="694" d="M25 25l596 1269l49 -22l-596 -1270z" />
<glyph unicode="0" horiz-adv-x="923" d="M154 270v754q0 55 13 99.5t31.5 72t44.5 48t47.5 29.5t45 14.5t32 6t13.5 0.5h12v-1292h-12q-5 0 -13.5 0.5t-32 6t-45 14.5t-47.5 29t-44.5 47.5t-31.5 71.5t-13 99zM530 2v1292h13q5 0 13.5 -0.5t32 -6t45 -14.5t47.5 -29.5t44.5 -48t31.5 -72t13 -99.5v-754 q0 -55 -13 -99t-31.5 -71.5t-44.5 -47.5t-47.5 -29t-45 -14.5t-32 -6t-13.5 -0.5h-13z" />
<glyph unicode="1" horiz-adv-x="765" d="M51 1159q0 57 39 96t96 39q56 0 96 -39t40 -96q0 -55 -40 -94t-96 -39q-57 0 -96 38.5t-39 94.5zM375 2v1292h239v-1292h-239z" />
<glyph unicode="2" horiz-adv-x="833" d="M72 2v377q0 124 83 215.5t205 105.5v-698h-288zM90 1159q0 57 39.5 96t95.5 39t95.5 -39t39.5 -96q0 -55 -39.5 -94t-95.5 -39t-95.5 39t-39.5 94zM414 2l323 322v-322h-323zM498 702v592q111 -12 187.5 -97t76.5 -200q0 -113 -76.5 -198t-187.5 -97z" />
<glyph unicode="3" horiz-adv-x="931" d="M133 2v322l324 -322h-324zM133 971v323h324zM186 676q0 56 39.5 94.5t96.5 38.5q56 0 94.5 -38.5t38.5 -94.5q0 -57 -38.5 -96t-94.5 -39q-57 0 -96.5 39t-39.5 96zM510 2v645q122 -14 205.5 -106t83.5 -217q0 -124 -83.5 -216t-205.5 -106zM510 702v592 q113 -12 188.5 -97t75.5 -200q0 -114 -75.5 -198.5t-188.5 -96.5z" />
<glyph unicode="4" horiz-adv-x="868" d="M41 326l340 970h266l-340 -970h-266zM496 270v377h239v-645h-10q-6 0 -14.5 0.5t-32.5 6t-45.5 14.5t-47.5 29t-44.5 47.5t-31.5 71.5t-13 99z" />
<glyph unicode="5" horiz-adv-x="909" d="M102 135q0 57 39.5 96t96.5 39q56 0 95.5 -39t39.5 -96q0 -55 -39.5 -94t-95.5 -39q-57 0 -96.5 38.5t-39.5 94.5zM117 702v592h239v-592h-239zM412 1294h321v-323zM496 2v700q131 -15 221 -115.5t90 -234.5q0 -135 -89.5 -235t-221.5 -115z" />
<glyph unicode="6" horiz-adv-x="903" d="M154 270v754q0 55 13 99.5t31.5 72t44.5 48t47.5 29.5t45 14.5t32 6t13.5 0.5h12v-1292h-12q-5 0 -13.5 0.5t-32 6t-45 14.5t-47.5 29t-44.5 47.5t-31.5 71.5t-13 99zM530 2v754h13q9 0 25 -1.5t55 -16.5t68.5 -40.5t54 -81t24.5 -131.5v-215q0 -55 -13 -99t-31.5 -71.5 t-44.5 -47.5t-47.5 -29t-45 -14.5t-32 -6t-13.5 -0.5h-13zM530 971v323h13q5 0 13.5 -0.5t32 -6t45 -14.5t47.5 -29.5t44.5 -48t31.5 -72t13 -99.5v-53h-240z" />
<glyph unicode="7" horiz-adv-x="913" d="M123 2l485 1292h264l-483 -1292h-266zM125 971v323h324z" />
<glyph unicode="8" horiz-adv-x="919" d="M102 324q0 125 83.5 217t205.5 106v-645q-122 14 -205.5 106t-83.5 216zM127 997q0 115 75.5 200t188.5 97v-592q-113 12 -188.5 96.5t-75.5 198.5zM528 2v645q122 -14 205.5 -106t83.5 -217q0 -124 -83.5 -216t-205.5 -106zM528 702v592q113 -12 189 -97t76 -200 q0 -114 -76 -198.5t-189 -96.5z" />
<glyph unicode="9" horiz-adv-x="903" d="M133 270v54h240v-322h-13q-5 0 -13.5 0.5t-32 6t-45 14.5t-47.5 29t-44.5 47.5t-31.5 71.5t-13 99zM133 809v215q0 55 13 99.5t31.5 72t44.5 48t47.5 29.5t45 14.5t32 6t13.5 0.5h13v-753h-13q-5 0 -13.5 0.5t-32 6t-45 14.5t-47.5 29t-44.5 47.5t-31.5 71.5t-13 99z M510 2v1292h12q5 0 13.5 -0.5t32 -6t45 -14.5t48 -29.5t45 -48t31.5 -72t13 -99.5v-754q0 -75 -24.5 -130t-54.5 -80.5t-69 -40t-54.5 -16t-25.5 -1.5h-12z" />
<glyph unicode=":" horiz-adv-x="372" d="M51 135q0 57 39 96t96 39q56 0 96 -39t40 -96q0 -55 -40 -94t-96 -39q-57 0 -96 38.5t-39 94.5zM51 676q0 56 39 94.5t96 38.5q56 0 96 -39t40 -94q0 -57 -40 -96t-96 -39q-57 0 -96 39t-39 96z" />
<glyph unicode=";" horiz-adv-x="372" d="M51 676q0 56 39 94.5t96 38.5q56 0 96 -39t40 -94q0 -57 -40 -96t-96 -39q-57 0 -96 39t-39 96zM66 -215v485h239v-215q0 -55 -13 -99.5t-31.5 -72t-44.5 -48t-47.5 -29.5t-45 -14.5t-32 -6t-13.5 -0.5h-12z" />
<glyph unicode="&#x3c;" horiz-adv-x="2048" />
<glyph unicode="=" horiz-adv-x="2048" />
<glyph unicode="&#x3e;" horiz-adv-x="2048" />
<glyph unicode="?" horiz-adv-x="780" d="M102 135q0 57 39.5 96t96.5 39q56 0 95.5 -39t39.5 -96q0 -55 -39.5 -94t-95.5 -39q-57 0 -96.5 38.5t-39.5 94.5zM102 1159q0 57 39.5 96t96.5 39q56 0 95.5 -39t39.5 -96q0 -55 -39.5 -94t-95.5 -39q-57 0 -96.5 38.5t-39.5 94.5zM117 379v53q0 55 13 99.5t31.5 72 t44.5 48t47.5 29.5t45 14.5t32 6t13.5 0.5h12v-323h-239zM465 702v592q111 -12 187.5 -97t76.5 -200q0 -113 -76.5 -198t-187.5 -97z" />
<glyph unicode="A" horiz-adv-x="1097" d="M51 2l182 490l144 -490h-326zM256 729q0 55 39 94t94 39q57 0 96 -38.5t39 -94.5q0 -57 -39 -96t-96 -39q-56 0 -94.5 39t-38.5 96zM422 1294h252l373 -1292h-248z" />
<glyph unicode="B" horiz-adv-x="923" d="M154 270v1024h239v-1292h-12q-5 0 -13.5 0.5t-32 6t-45 14.5t-47.5 29t-44.5 47.5t-31.5 71.5t-13 99zM530 2v700h13q5 0 13.5 -0.5t32 -6t45 -14.5t47.5 -29.5t44.5 -48t31.5 -72t13 -99.5v-162q0 -55 -13 -99t-31.5 -71.5t-44.5 -47.5t-47.5 -29t-45 -14.5t-32 -6 t-13.5 -0.5h-13zM530 756v538q102 -12 171 -89t69 -181q0 -102 -69 -179t-171 -89z" />
<glyph unicode="C" horiz-adv-x="872" d="M154 270v754q0 55 13 99.5t31.5 72t44.5 48t47.5 29.5t45 14.5t32 6t13.5 0.5h12v-1292h-12q-5 0 -13.5 0.5t-32 6t-45 14.5t-47.5 29t-44.5 47.5t-31.5 71.5t-13 99zM446 2l324 322v-322h-324zM446 1294h324v-323z" />
<glyph unicode="D" horiz-adv-x="923" d="M154 2v1292h239v-1292h-239zM530 2v1292h13q5 0 13.5 -0.5t32 -6t45 -14.5t47.5 -29.5t44.5 -48t31.5 -72t13 -99.5v-754q0 -55 -13 -99t-31.5 -71.5t-44.5 -47.5t-47.5 -29t-45 -14.5t-32 -6t-13.5 -0.5h-13z" />
<glyph unicode="E" horiz-adv-x="903" d="M154 270v1024h239v-1292h-12q-5 0 -13.5 0.5t-32 6t-45 14.5t-47.5 29t-44.5 47.5t-31.5 71.5t-13 99zM446 2l324 322v-322h-324zM446 729q0 55 40 95t96 40t95.5 -40t39.5 -95q0 -57 -39.5 -96t-95.5 -39t-96 39t-40 96zM446 1294h324v-323z" />
<glyph unicode="F" horiz-adv-x="821" d="M154 0v1294h239v-1294h-239zM446 729q0 55 40 94t96 39t95.5 -39t39.5 -94q0 -57 -39.5 -96t-95.5 -39t-96 39t-40 96zM446 1294h324v-323z" />
<glyph unicode="G" horiz-adv-x="874" d="M154 270v754q0 55 13 99.5t31.5 72t44.5 48t47.5 29.5t45 14.5t32 6t13.5 0.5h12v-1292h-12q-5 0 -13.5 0.5t-32 6t-45 14.5t-47.5 29t-44.5 47.5t-31.5 71.5t-13 99zM446 1294h324v-323zM532 2v700h240v-432q0 -55 -13 -99t-31.5 -71.5t-44.5 -47.5t-47.5 -29 t-45.5 -14.5t-32.5 -6t-14.5 -0.5h-11z" />
<glyph unicode="H" horiz-adv-x="1161" d="M152 2v1292h239v-1292h-239zM444 729q0 55 40 95t96 40t95.5 -40t39.5 -95q0 -57 -39.5 -96t-95.5 -39t-96 39t-40 96zM768 2v1292h240v-1292h-240z" />
<glyph unicode="I" horiz-adv-x="546" d="M154 2v1292h239v-1292h-239z" />
<glyph unicode="J" horiz-adv-x="821" d="M25 270h266v-268q-48 0 -88 15t-66.5 38.5t-47.5 52t-32.5 57t-19 52t-9.5 38.5zM428 2v1292h240v-1024q0 -75 -24.5 -130t-54.5 -80.5t-69 -40t-54.5 -16t-25.5 -1.5h-12z" />
<glyph unicode="K" horiz-adv-x="903" d="M154 2v1292h239v-1292h-12h-227zM530 2v700h13q5 0 13.5 -0.5t32 -6t45 -14.5t47.5 -29.5t44.5 -48t31.5 -72t13 -99.5v-430h-240zM530 754v540h271z" />
<glyph unicode="L" horiz-adv-x="794" d="M154 270v1024h239v-1292h-12q-5 0 -13.5 0.5t-32 6t-45 14.5t-47.5 29t-44.5 47.5t-31.5 71.5t-13 99zM446 2l324 322v-322h-324z" />
<glyph unicode="M" horiz-adv-x="1300" d="M154 2v1292h239v-1292h-239zM530 2v1292h240v-1292h-240zM907 2v1292h13q5 0 13.5 -0.5t32 -6t45 -14.5t47.5 -29.5t44.5 -48t31.5 -72t13 -99.5v-1022h-240z" />
<glyph unicode="N" horiz-adv-x="923" d="M154 2v1292h239v-1292h-239zM530 2v1292h13q5 0 13.5 -0.5t32 -6t45 -14.5t47.5 -29.5t44.5 -48t31.5 -72t13 -99.5v-1022h-240z" />
<glyph unicode="O" horiz-adv-x="821" d="M102 270v754q0 55 13 99.5t31.5 72t45 48t48 29.5t45 14.5t32 6t13.5 0.5h12v-1292h-12q-10 0 -25.5 1.5t-54.5 16t-69 40t-54.5 80.5t-24.5 130zM479 2v1292h13q5 0 13.5 -0.5t32 -6t45 -14.5t47.5 -29.5t44.5 -48t31.5 -72t13 -99.5v-754q0 -55 -13 -99t-31.5 -71.5 t-44.5 -47.5t-47.5 -29t-45 -14.5t-32 -6t-13.5 -0.5h-13z" />
<glyph unicode="P" horiz-adv-x="841" d="M154 2v1292h239v-1292h-239zM530 594v700h13q5 0 13.5 -0.5t32 -6t45 -14.5t47.5 -29.5t44.5 -48t31.5 -72t13 -99.5v-160q0 -55 -13 -99.5t-31.5 -72t-44.5 -48t-47.5 -29.5t-45 -14.5t-32 -6t-13.5 -0.5h-13z" />
<glyph unicode="Q" horiz-adv-x="821" d="M102 270v756q0 75 24.5 130t54.5 80.5t69 40t54.5 16t25.5 1.5h12v-1292h-12q-10 0 -25.5 1.5t-54.5 16t-69 40t-54.5 80.5t-24.5 130zM276 -215l134 238l135 -238h-269zM479 2v1292h13q5 0 13.5 -0.5t32 -6t45 -14.5t47.5 -29t44.5 -47.5t31.5 -71.5t13 -99v-756 q0 -55 -13 -99t-31.5 -71.5t-44.5 -47.5t-47.5 -29t-45 -14.5t-32 -6t-13.5 -0.5h-13z" />
<glyph unicode="R" horiz-adv-x="915" d="M154 2v1292h239v-1292h-239zM530 2v700l334 -700h-334zM530 756v538q102 -12 171 -88t69 -180t-69 -181t-171 -89z" />
<glyph unicode="S" horiz-adv-x="792" d="M51 997q0 115 75.5 200t188.5 97v-592q-113 12 -188.5 96.5t-75.5 198.5zM76 147q0 62 43 105t104 43q60 0 103 -43.5t43 -104.5q0 -60 -43 -102.5t-103 -42.5q-61 0 -104 42.5t-43 102.5zM399 1159q0 57 39.5 96t96.5 39q56 0 94.5 -39t38.5 -96q0 -56 -39 -95.5 t-94 -39.5q-57 0 -96.5 39.5t-39.5 95.5zM453 2v645q122 -14 205 -106t83 -217q0 -124 -83 -216t-205 -106z" />
<glyph unicode="T" horiz-adv-x="886" d="M25 1030v264h258zM324 2v1292h239v-1292h-239zM606 1294h256v-264z" />
<glyph unicode="U" horiz-adv-x="923" d="M154 270v1024h239v-1292h-12q-5 0 -13.5 0.5t-32 6t-45 14.5t-47.5 29t-44.5 47.5t-31.5 71.5t-13 99zM530 2v1292h240v-1292h-240z" />
<glyph unicode="V" horiz-adv-x="944" d="M41 1294h248l358 -1292h-248zM543 1294h360l-180 -649z" />
<glyph unicode="W" horiz-adv-x="1300" d="M154 270v1024h239v-1292h-12q-5 0 -13.5 0.5t-32 6t-45 14.5t-47.5 29t-44.5 47.5t-31.5 71.5t-13 99zM530 2v1292h240v-1292h-240zM907 2v1292h240v-1024q0 -55 -13 -99t-31.5 -71.5t-44.5 -47.5t-47.5 -29t-45 -14.5t-32 -6t-13.5 -0.5h-13z" />
<glyph unicode="X" horiz-adv-x="1107" d="M76 2l188 367l189 -367h-377zM76 1294h293l661 -1292h-287zM655 1294h377l-188 -366z" />
<glyph unicode="Y" horiz-adv-x="931" d="M102 971v323h240v-592h-12q-9 0 -25 1.5t-55 16.5t-69 40t-54.5 80.5t-24.5 130.5zM178 0l436 1294h267l-437 -1294h-266z" />
<glyph unicode="Z" horiz-adv-x="851" d="M51 0l486 1294h264l-484 -1294h-266zM137 971v323h322zM399 2l324 322v-322h-324z" />
<glyph unicode="\" horiz-adv-x="694" d="M25 1272l49 22l596 -1269l-49 -23z" />
<glyph unicode="_" horiz-adv-x="503" d="M51 -190h402v-107h-402v107z" />
<glyph unicode="a" horiz-adv-x="817" d="M113 270q0 112 79 191.5t189 79.5v-539q-110 0 -189 79t-79 189zM166 594v270h270zM489 2v862q60 0 104.5 -28t65 -67.5t32 -79t13.5 -67.5l1 -28v-592h-216z" />
<glyph unicode="b" d="M113 270v756q0 6 0.5 15.5t4.5 37.5t11.5 53t23.5 56t38 53.5t57.5 37.5t79.5 15v-1292q-44 0 -79.5 15t-57.5 38.5t-38 52t-23.5 57t-11.5 52t-4 38.5zM436 2v862q60 0 104.5 -28t64.5 -67.5t31.5 -79t13.5 -67.5l1 -28v-324q0 -6 -0.5 -15.5t-4.5 -37.5t-12 -53 t-23.5 -56t-37.5 -53.5t-57.5 -37.5t-79.5 -15z" />
<glyph unicode="c" horiz-adv-x="743" d="M113 270v324q0 6 0.5 15.5t4.5 37.5t11.5 53.5t23.5 56.5t38 53.5t57.5 38t79.5 15.5v-862q-44 0 -79.5 15t-57.5 38.5t-38 52t-23.5 57t-11.5 52t-4 38.5zM383 2l268 268v-268h-268zM383 864h268v-270z" />
<glyph unicode="d" d="M113 270v324q0 6 0.5 15.5t4.5 37.5t11.5 53.5t23.5 56.5t38 53.5t57.5 38t79.5 15.5v-862q-44 0 -79.5 15t-57.5 38.5t-38 52t-23.5 57t-11.5 52t-4 38.5zM436 2v1024q0 6 0.5 15.5t4.5 37.5t11.5 53t23.5 56t38 53.5t57.5 37.5t78.5 15v-1024v-15.5t-4 -37.5t-12 -53 t-23.5 -56t-37.5 -53.5t-57.5 -37.5t-79.5 -15z" />
<glyph unicode="e" d="M113 270v324q0 6 0.5 15.5t4.5 37.5t11.5 53.5t23.5 56.5t38 53.5t57.5 38t79.5 15.5v-862q-44 0 -79.5 15t-57.5 38.5t-38 52t-23.5 57t-11.5 52t-4 38.5zM436 2v215h213q-1 -4 -2 -12t-7.5 -30.5t-15.5 -42.5t-26 -45t-38 -43t-53.5 -30t-70.5 -12zM436 379v485 q44 0 79.5 -13.5t57.5 -35t38 -47t23.5 -51.5t11.5 -47.5t4 -35.5l1 -13q0 -5 -0.5 -13.5t-4.5 -34t-12 -48t-23.5 -50.5t-37.5 -48t-57.5 -34t-79.5 -14z" />
<glyph unicode="f" horiz-adv-x="681" d="M113 2v1024q0 6 0.5 15.5t4.5 37.5t11.5 53t23.5 56t38 53.5t57.5 37.5t79.5 15v-1292h-215zM383 729q0 56 39 95.5t94 39.5q57 0 96 -39.5t39 -95.5t-39 -95.5t-96 -39.5q-55 0 -94 39.5t-39 95.5zM383 1294h268v-268z" />
<glyph unicode="g" d="M113 270v324q0 6 0.5 15.5t4.5 37.5t11.5 53.5t23.5 56.5t38 53.5t57.5 38t79.5 15.5v-862q-44 0 -79.5 15t-57.5 38.5t-38 52t-23.5 57t-11.5 52t-4 38.5zM117 -215h211v-215q-52 0 -92.5 22t-61.5 54t-35 63.5t-18 53.5zM436 -430v1294q60 0 104.5 -28t64.5 -67.5 t31.5 -79t13.5 -67.5l1 -28v-754q0 -6 -0.5 -15.5t-4.5 -37.5t-11.5 -53.5t-23.5 -56.5t-38 -53.5t-57.5 -38t-79.5 -15.5z" />
<glyph unicode="h" d="M113 2v1024q0 6 0.5 15.5t4.5 37.5t11.5 53t23.5 56t38 53.5t57.5 37.5t79.5 15v-1292h-215zM436 2v862q60 0 104.5 -28t64.5 -67.5t31.5 -79t13.5 -67.5l1 -28v-592h-215z" />
<glyph unicode="i" horiz-adv-x="440" d="M113 2v862h215v-862h-215zM113 1079q0 44 32 76.5t76 32.5t75.5 -32.5t31.5 -76.5t-31.5 -76t-75.5 -32t-76 32t-32 76z" />
<glyph unicode="j" horiz-adv-x="579" d="M-72 -215h213v-215q-52 0 -93 22t-62.5 54t-35.5 63.5t-18 53.5zM252 -430v1294h215v-1024q0 -6 -0.5 -15.5t-4.5 -37.5t-11.5 -53.5t-23.5 -56.5t-38 -53.5t-57.5 -38t-79.5 -15.5zM252 1079q0 45 31.5 77t76.5 32q44 0 75.5 -32.5t31.5 -76.5t-31.5 -76t-75.5 -32 q-45 0 -76.5 31.5t-31.5 76.5z" />
<glyph unicode="k" horiz-adv-x="753" d="M113 2v1024q0 6 0.5 15.5t4.5 37.5t11.5 53t23.5 56t38 53.5t57.5 37.5t79.5 15v-1292h-215zM436 2v430q44 0 79.5 -15t57.5 -38.5t38 -52t23.5 -57t11.5 -52t4 -38.5l1 -15v-162h-215zM436 487v377h246z" />
<glyph unicode="l" horiz-adv-x="440" d="M113 2v1024q0 6 0.5 15.5t4.5 37.5t11.5 53t23.5 56t38 53.5t57.5 37.5t79.5 15v-1292h-215z" />
<glyph unicode="m" horiz-adv-x="1087" d="M113 2v862h215v-862h-215zM436 2v862h215v-862h-215zM760 2v862q60 0 104.5 -28t64.5 -67.5t31.5 -79t13.5 -67.5l1 -28v-592h-215z" />
<glyph unicode="n" d="M113 2v862h215v-862h-215zM436 2v862q60 0 104.5 -28t64.5 -67.5t31.5 -79t13.5 -67.5l1 -28v-592h-215z" />
<glyph unicode="o" d="M113 270v324q0 6 0.5 15.5t4.5 37.5t11.5 53.5t23.5 56.5t38 53.5t57.5 38t79.5 15.5v-862q-44 0 -79.5 15t-57.5 38.5t-38 52t-23.5 57t-11.5 52t-4 38.5zM436 2v862q60 0 104.5 -28t64.5 -67.5t31.5 -79t13.5 -67.5l1 -28v-324q0 -6 -0.5 -15.5t-4.5 -37.5t-12 -53 t-23.5 -56t-37.5 -53.5t-57.5 -37.5t-79.5 -15z" />
<glyph unicode="p" d="M113 -430v1294h215v-1024q0 -6 -0.5 -15.5t-4.5 -37.5t-11.5 -53.5t-23.5 -56.5t-38 -53.5t-57.5 -38t-79.5 -15.5zM436 2v862q60 0 104.5 -28t64.5 -67.5t31.5 -79t13.5 -67.5l1 -28v-324q0 -6 -0.5 -15.5t-4.5 -37.5t-11.5 -53t-23.5 -56t-38 -53.5t-57.5 -37.5 t-79.5 -15z" />
<glyph unicode="q" d="M113 270v324q0 6 0.5 15.5t4.5 37.5t11.5 53.5t23.5 56.5t38 53.5t57.5 38t79.5 15.5v-862q-44 0 -79.5 15t-57.5 38.5t-38 52t-23.5 57t-11.5 52t-4 38.5zM436 -430v1294h215v-1024q0 -6 -0.5 -15.5t-4.5 -37.5t-11.5 -53.5t-23.5 -56.5t-38 -53.5t-57.5 -38 t-79.5 -15.5z" />
<glyph unicode="r" horiz-adv-x="692" d="M113 2v592q0 6 0.5 15.5t4.5 37.5t11.5 53.5t23.5 56.5t38 53.5t57.5 38t79.5 15.5v-862h-215zM383 864h268v-270z" />
<glyph unicode="s" horiz-adv-x="681" d="M72 137q0 56 39 94.5t96 38.5q56 0 95.5 -39t39.5 -94q0 -57 -39.5 -96t-95.5 -39q-57 0 -96 39t-39 96zM72 647q0 91 63 154t152 63v-432q-89 0 -152 63t-63 152zM342 729q0 56 39 95.5t94 39.5q57 0 96 -39.5t39 -95.5t-39 -95.5t-96 -39.5q-55 0 -94 39.5t-39 95.5z M395 2v430q89 0 152 -63t63 -152t-63 -152t-152 -63z" />
<glyph unicode="t" horiz-adv-x="681" d="M113 2v916q0 6 0.5 15.5t4.5 37.5t11.5 53.5t23.5 56.5t38 53.5t57.5 38t79.5 15.5v-1186h-215zM383 729q0 56 39 95.5t94 39.5q57 0 96 -39.5t39 -95.5t-39 -95.5t-96 -39.5q-55 0 -94 39.5t-39 95.5z" />
<glyph unicode="u" d="M113 270v594h215v-862q-44 0 -79.5 15t-57.5 38.5t-38 52t-23.5 57t-11.5 52t-4 38.5zM436 2v862h215v-862h-215z" />
<glyph unicode="v" horiz-adv-x="829" d="M51 864h228l294 -862h-227zM469 864h309l-155 -452z" />
<glyph unicode="w" horiz-adv-x="1087" d="M113 270v594h215v-862q-44 0 -79.5 15t-57.5 38.5t-38 52t-23.5 57t-11.5 52t-4 38.5zM436 2v862h215v-862h-215zM760 2v862h215v-594q0 -6 -0.5 -15.5t-4.5 -37.5t-12 -53t-23.5 -56t-37.5 -53.5t-57.5 -37.5t-79.5 -15z" />
<glyph unicode="x" horiz-adv-x="860" d="M61 2l144 254l143 -254h-287zM61 864h250l488 -862h-250zM512 864h287l-144 -254z" />
<glyph unicode="y" horiz-adv-x="890" d="M113 379v485h215v-755q-60 0 -104.5 28t-64.5 67.5t-31.5 79t-13.5 67.5zM256 -375l360 1239h224l-359 -1239h-225z" />
<glyph unicode="z" horiz-adv-x="757" d="M72 2l377 862h237l-381 -862h-233zM109 594v270h268zM375 2l268 268v-268h-268z" />
<glyph unicode="&#xa1;" horiz-adv-x="577" d="M154 1159q0 56 39 95.5t96 39.5q55 0 95 -40t40 -95t-40 -95t-95 -40q-57 0 -96 39.5t-39 95.5zM168 2v916h240v-916h-240z" />
<glyph unicode="&#xad;" horiz-adv-x="503" d="M51 190v107h402v-107h-402z" />
<glyph unicode="&#xb4;" horiz-adv-x="342" d="M51 834v485h240v-215q0 -55 -13 -99.5t-31.5 -72t-45 -48t-48 -29.5t-45 -14.5t-32 -6t-13.5 -0.5h-12z" />
<glyph unicode="&#xb7;" horiz-adv-x="2048" />
<glyph unicode="&#xbf;" horiz-adv-x="780" d="M51 297q0 115 75.5 200t188.5 97v-592q-113 12 -188.5 96.5t-75.5 198.5zM408 135q0 57 39.5 96t95.5 39t95.5 -39t39.5 -96q0 -55 -39.5 -94t-95.5 -39t-95.5 39t-39.5 94zM408 1159q0 57 39.5 96t95.5 39t95.5 -39t39.5 -96q0 -55 -39.5 -94t-95.5 -39t-95.5 39 t-39.5 94zM422 594v324h240v-54q0 -55 -13 -99.5t-31.5 -72t-45 -48t-48 -29.5t-45 -14.5t-32 -6t-13.5 -0.5h-12z" />
<glyph unicode="&#xc0;" horiz-adv-x="1097" d="M51 0l182 492l144 -492h-326zM254 727q0 55 40 95t95 40t95 -40t40 -95t-40 -95t-95 -40t-95 40t-40 95zM393 1577l35 41l250 -209l-35 -41zM422 1292h250l375 -1292h-250z" />
<glyph unicode="&#xc1;" horiz-adv-x="1097" d="M51 0l182 492l144 -492h-326zM254 727q0 55 40 95t95 40t95 -40t40 -95t-40 -95t-95 -40t-95 40t-40 95zM342 1409l250 209l33 -41l-248 -209zM422 1292h250l375 -1292h-250z" />
<glyph unicode="&#xc2;" horiz-adv-x="1097" d="M51 2l182 490l144 -490h-326zM256 729q0 55 39 94t94 39q57 0 96 -38.5t39 -94.5q0 -57 -39 -96t-96 -39q-56 0 -94.5 39t-38.5 96zM358 1403l174 172l173 -172h-76l-97 96l-98 -96h-76zM422 1294h252l373 -1292h-248z" />
<glyph unicode="&#xc3;" horiz-adv-x="1097" d="M51 2l182 490l144 -490h-326zM256 729q0 55 39 94t94 39q57 0 96 -38.5t39 -94.5q0 -57 -39 -96t-96 -39q-56 0 -94.5 39t-38.5 96zM332 1456v53h217v-53h106v-53h-217v53h-106zM422 1294h252l373 -1292h-248z" />
<glyph unicode="&#xc4;" horiz-adv-x="1097" d="M51 2l182 490l144 -490h-326zM256 729q0 55 39 94t94 39q57 0 96 -38.5t39 -94.5q0 -57 -39 -96t-96 -39q-56 0 -94.5 39t-38.5 96zM319 1468q0 28 20 48t48 20t47 -20t19 -48t-19 -46.5t-47 -18.5t-48 19t-20 46zM422 1294h252l373 -1292h-248zM580 1468q0 28 19 48 t48 20q28 0 47 -20t19 -48t-19 -46.5t-47 -18.5q-29 0 -48 18.5t-19 46.5z" />
<glyph unicode="&#xc5;" horiz-adv-x="1097" d="M51 2l182 490l144 -490h-326zM256 729q0 55 39 94t94 39q57 0 96 -38.5t39 -94.5q0 -57 -39 -96t-96 -39q-56 0 -94.5 39t-38.5 96zM422 1294h252l373 -1292h-248zM436 1491q0 35 25.5 60.5t62.5 25.5t62.5 -25.5t25.5 -60.5q0 -37 -25.5 -62.5t-62.5 -25.5t-62.5 25.5 t-25.5 62.5zM475 1491q0 -21 14 -35t35 -14t35 14t14 35q0 20 -14.5 33.5t-34.5 13.5t-34.5 -13.5t-14.5 -33.5z" />
<glyph unicode="&#xc6;" horiz-adv-x="1519" d="M14 2l326 490v-490h-326zM418 729q0 55 39.5 94t95.5 39q57 0 96 -38.5t39 -94.5q0 -57 -39 -96t-96 -39q-56 0 -95.5 39t-39.5 96zM770 2v1292h240v-1292h-240zM1063 2l323 322v-322h-323zM1063 729q0 55 39.5 95t95.5 40t95.5 -40t39.5 -95q0 -57 -39.5 -96t-95.5 -39 t-95.5 39t-39.5 96zM1063 1294h323v-323z" />
<glyph unicode="&#xc7;" horiz-adv-x="872" d="M154 270v756q0 55 13 99t31.5 71.5t44.5 47.5t47.5 29t45 14.5t32 6t13.5 0.5h12v-1292h-12q-5 0 -13.5 0.5t-32 6t-45 14.5t-47.5 29t-44.5 47.5t-31.5 71.5t-13 99zM272 -172l498 496v-322h-248l-172 -174h-78zM446 1294h324v-323z" />
<glyph unicode="&#xc8;" horiz-adv-x="903" d="M154 270v1022h239v-1292h-12q-5 0 -13.5 0.5t-32 6t-45 14.5t-47.5 29.5t-44.5 48t-31.5 72t-13 99.5zM340 1577l33 41l250 -209l-35 -41zM446 0l324 324v-324h-324zM446 727q0 55 40 95t96 40t95.5 -40t39.5 -95t-39.5 -95t-95.5 -40t-96 40t-40 95zM446 1292h324v-323z " />
<glyph unicode="&#xc9;" horiz-adv-x="903" d="M154 270v1022h239v-1292h-12q-5 0 -13.5 0.5t-32 6t-45 14.5t-47.5 29.5t-44.5 48t-31.5 72t-13 99.5zM354 1409l250 209l35 -41l-250 -209zM446 0l324 324v-324h-324zM446 727q0 55 40 95t96 40t95.5 -40t39.5 -95t-39.5 -95t-95.5 -40t-96 40t-40 95zM446 1292h324 v-323z" />
<glyph unicode="&#xca;" horiz-adv-x="903" d="M154 270v1024h239v-1292h-12q-5 0 -13.5 0.5t-32 6t-45 14.5t-47.5 29t-44.5 47.5t-31.5 71.5t-13 99zM315 1403l174 172l175 -172h-78l-97 96l-98 -96h-76zM446 2l324 322v-322h-324zM446 729q0 55 40 95t96 40t95.5 -40t39.5 -95q0 -57 -39.5 -96t-95.5 -39t-96 39 t-40 96zM446 1294h324v-323z" />
<glyph unicode="&#xcb;" horiz-adv-x="903" d="M154 270v1024h239v-1292h-12q-5 0 -13.5 0.5t-32 6t-45 14.5t-47.5 29t-44.5 47.5t-31.5 71.5t-13 99zM281 1468q0 28 19.5 48t47.5 20t47 -20t19 -48t-19 -46.5t-47 -18.5t-47.5 18.5t-19.5 46.5zM446 2l324 322v-322h-324zM446 729q0 55 40 95t96 40t95.5 -40t39.5 -95 q0 -57 -39.5 -96t-95.5 -39t-96 39t-40 96zM446 1294h324v-323zM541 1468q0 28 19 48t46 20q28 0 48 -20t20 -48q0 -27 -20 -46t-48 -19t-46.5 18.5t-18.5 46.5z" />
<glyph unicode="&#xcc;" horiz-adv-x="589" d="M154 1577l34 41l248 -209l-35 -41zM158 0v1292h239v-1292h-239z" />
<glyph unicode="&#xcd;" horiz-adv-x="589" d="M154 1409l247 209l35 -41l-248 -209zM195 0v1292h239v-1292h-239z" />
<glyph unicode="&#xce;" horiz-adv-x="655" d="M154 1403l174 172l174 -172h-78l-96 96l-99 -96h-75zM207 2v1292h239v-1292h-239z" />
<glyph unicode="&#xcf;" horiz-adv-x="681" d="M154 1468q0 28 19.5 48t47.5 20t47 -20t19 -48t-19 -46.5t-47 -18.5t-47.5 18.5t-19.5 46.5zM221 2v1292h240v-1292h-240zM395 1468q0 28 19 48t47 20q29 0 48 -20t19 -48t-19 -46.5t-48 -18.5q-28 0 -47 18.5t-19 46.5z" />
<glyph unicode="&#xd1;" horiz-adv-x="923" d="M154 2v1292h239v-1292h-239zM289 1456v53h215v-53h106v-53h-215v53h-106zM530 2v1292h13q5 0 13.5 -0.5t32 -6t45 -14.5t47.5 -29t44.5 -47.5t31.5 -71.5t13 -99v-1024h-240z" />
<glyph unicode="&#xd2;" horiz-adv-x="923" d="M154 270v754q0 55 13 99t31.5 71.5t44.5 47.5t47.5 29t45 14.5t32 6t13.5 0.5h12v-1292h-12q-5 0 -13.5 0.5t-32 6t-45 14.5t-47.5 29.5t-44.5 48t-31.5 72t-13 99.5zM350 1577l35 41l250 -209l-35 -41zM530 0v1292h13q5 0 13.5 -0.5t32 -6t45 -14.5t47.5 -29t44.5 -47.5 t31.5 -71.5t13 -99v-754q0 -55 -13 -99.5t-31.5 -72t-44.5 -48t-47.5 -29.5t-45 -14.5t-32 -6t-13.5 -0.5h-13z" />
<glyph unicode="&#xd3;" horiz-adv-x="923" d="M154 270v754q0 55 13 99t31.5 71.5t44.5 47.5t47.5 29t45 14.5t32 6t13.5 0.5h12v-1292h-12q-5 0 -13.5 0.5t-32 6t-45 14.5t-47.5 29.5t-44.5 48t-31.5 72t-13 99.5zM301 1409l248 209l35 -41l-248 -209zM530 0v1292h13q5 0 13.5 -0.5t32 -6t45 -14.5t47.5 -29 t44.5 -47.5t31.5 -71.5t13 -99v-754q0 -55 -13 -99.5t-31.5 -72t-44.5 -48t-47.5 -29.5t-45 -14.5t-32 -6t-13.5 -0.5h-13z" />
<glyph unicode="&#xd4;" horiz-adv-x="923" d="M154 270v756q0 55 13 99t31.5 71.5t44.5 47.5t47.5 29t45 14.5t32 6t13.5 0.5h12v-1292h-12q-5 0 -13.5 0.5t-32 6t-45 14.5t-47.5 29t-44.5 47.5t-31.5 71.5t-13 99zM291 1403l174 172l174 -172h-76l-98 96l-96 -96h-78zM530 2v1292h13q5 0 13.5 -0.5t32 -6t45 -14.5 t47.5 -29t44.5 -47.5t31.5 -71.5t13 -99v-756q0 -55 -13 -99t-31.5 -71.5t-44.5 -47.5t-47.5 -29t-45 -14.5t-32 -6t-13.5 -0.5h-13z" />
<glyph unicode="&#xd5;" horiz-adv-x="923" d="M154 270v756q0 55 13 99t31.5 71.5t44.5 47.5t47.5 29t45 14.5t32 6t13.5 0.5h12v-1292h-12q-5 0 -13.5 0.5t-32 6t-45 14.5t-47.5 29t-44.5 47.5t-31.5 71.5t-13 99zM285 1456v53h217v-53h106v-53h-217v53h-106zM530 2v1292h13q5 0 13.5 -0.5t32 -6t45 -14.5t47.5 -29 t44.5 -47.5t31.5 -71.5t13 -99v-756q0 -55 -13 -99t-31.5 -71.5t-44.5 -47.5t-47.5 -29t-45 -14.5t-32 -6t-13.5 -0.5h-13z" />
<glyph unicode="&#xd6;" horiz-adv-x="821" d="M102 270v756q0 75 24.5 130t54.5 80.5t69 40t54.5 16t25.5 1.5h12v-1292h-12q-10 0 -25.5 1.5t-54.5 16t-69 40t-54.5 80.5t-24.5 130zM215 1468q0 28 19 48t47 20t47.5 -20t19.5 -48t-19.5 -46.5t-47.5 -18.5t-47 18.5t-19 46.5zM473 1468q0 28 20 48t48 20t47.5 -20 t19.5 -48t-19.5 -46.5t-47.5 -18.5t-48 19t-20 46zM479 2v1292h13q5 0 13.5 -0.5t32 -6t45 -14.5t47.5 -29t44.5 -47.5t31.5 -71.5t13 -99v-756q0 -55 -13 -99t-31.5 -71.5t-44.5 -47.5t-47.5 -29t-45 -14.5t-32 -6t-13.5 -0.5h-13z" />
<glyph unicode="&#xd9;" horiz-adv-x="923" d="M154 270v1022h239v-1292h-12q-5 0 -13.5 0.5t-32 6t-45 14.5t-47.5 29.5t-44.5 48t-31.5 72t-13 99.5zM348 1577l35 41l250 -209l-35 -41zM530 0v1292h240v-1292h-240z" />
<glyph unicode="&#xda;" horiz-adv-x="923" d="M154 270v1022h239v-1292h-12q-5 0 -13.5 0.5t-32 6t-45 14.5t-47.5 29.5t-44.5 48t-31.5 72t-13 99.5zM309 1409l248 209l35 -41l-248 -209zM530 0v1292h240v-1292h-240z" />
<glyph unicode="&#xdb;" horiz-adv-x="923" d="M154 270v1024h239v-1292h-12q-5 0 -13.5 0.5t-32 6t-45 14.5t-47.5 29t-44.5 47.5t-31.5 71.5t-13 99zM289 1403l174 172l172 -172h-76l-96 96l-98 -96h-76zM530 2v1292h240v-1292h-240z" />
<glyph unicode="&#xdc;" horiz-adv-x="923" d="M154 270v1024h239v-1292h-12q-5 0 -13.5 0.5t-32 6t-45 14.5t-47.5 29t-44.5 47.5t-31.5 71.5t-13 99zM264 1468q0 28 19 48t47 20t47.5 -20t19.5 -48t-19.5 -46.5t-47.5 -18.5t-47 18.5t-19 46.5zM524 1468q0 28 20 48t48 20t47.5 -20t19.5 -48t-19.5 -46.5t-47.5 -18.5 t-48 19t-20 46zM530 2v1292h240v-1292h-240z" />
<glyph unicode="&#xdd;" horiz-adv-x="929" d="M102 969v323h240v-592h-12q-9 0 -25 1.5t-55 16.5t-69 40t-54.5 80.5t-24.5 130.5zM178 0l436 1292h265l-435 -1292h-266zM336 1409l248 209l34 -41l-247 -209z" />
<glyph unicode="&#xe0;" horiz-adv-x="817" d="M113 270q0 112 79 191.5t189 79.5v-539q-110 0 -189 79t-79 189zM166 594v270h270zM305 1149l33 41l250 -209l-35 -41zM489 2v862q60 0 104.5 -28t65 -67.5t32 -79t13.5 -67.5l1 -28v-592h-216z" />
<glyph unicode="&#xe1;" horiz-adv-x="817" d="M113 270q0 112 79 191.5t189 79.5v-539q-110 0 -189 79t-79 189zM166 594v270h270zM293 981l250 209l35 -41l-250 -209zM489 2v862q60 0 104.5 -28t65 -67.5t32 -79t13.5 -67.5l1 -28v-592h-216z" />
<glyph unicode="&#xe2;" horiz-adv-x="817" d="M113 270q0 112 79 191.5t189 79.5v-539q-110 0 -189 79t-79 189zM166 594v270h270zM262 971l174 174l172 -174h-76l-96 98l-98 -98h-76zM489 2v862q60 0 104.5 -28t65 -67.5t32 -79t13.5 -67.5l1 -28v-592h-216z" />
<glyph unicode="&#xe3;" horiz-adv-x="817" d="M113 270q0 112 79 191.5t189 79.5v-539q-110 0 -189 79t-79 189zM166 594v270h270zM272 1026v53h217v-53h107v-55h-217v55h-107zM489 2v862q60 0 104.5 -28t65 -67.5t32 -79t13.5 -67.5l1 -28v-592h-216z" />
<glyph unicode="&#xe4;" horiz-adv-x="817" d="M113 270q0 112 79 191.5t189 79.5v-539q-110 0 -189 79t-79 189zM166 594v270h270zM248 1038q0 28 19.5 48t47.5 20t47 -20t19 -48t-19 -47.5t-47 -19.5t-47.5 19.5t-19.5 47.5zM489 2v862q60 0 104.5 -28t65 -67.5t32 -79t13.5 -67.5l1 -28v-592h-216zM489 1038 q0 28 20 48t48 20t47 -20t19 -48t-19 -47.5t-47 -19.5t-48 19.5t-20 47.5z" />
<glyph unicode="&#xe5;" horiz-adv-x="817" d="M113 270q0 112 79 191.5t189 79.5v-539q-110 0 -189 79t-79 189zM166 594v270h270zM348 1059q0 37 25.5 62.5t62.5 25.5q36 0 62 -26t26 -62q0 -35 -26.5 -61.5t-61.5 -26.5q-36 0 -62 26t-26 62zM387 1059q0 -20 14.5 -34.5t34.5 -14.5t34.5 14.5t14.5 34.5t-14.5 34.5 t-34.5 14.5t-34.5 -14.5t-14.5 -34.5zM489 2v862q60 0 104.5 -28t65 -67.5t32 -79t13.5 -67.5l1 -28v-592h-216z" />
<glyph unicode="&#xe6;" horiz-adv-x="1140" d="M113 270q0 112 79 191.5t189 79.5v-539q-110 0 -189 79t-79 189zM166 594v270h270zM489 270v594q60 0 104.5 -28t65 -67.5t32 -79t13.5 -67.5l1 -28v-592q-44 0 -79.5 15t-57.5 38.5t-38 52t-23.5 57t-12 52t-4.5 38.5zM813 2v215h213q-1 -4 -2 -12t-7.5 -30.5 t-15.5 -42.5t-26 -45t-38 -43t-53.5 -30t-70.5 -12zM813 379v485q44 0 79.5 -13.5t57.5 -35t38 -47t23.5 -51.5t11.5 -47.5t5 -35.5v-13q0 -5 -0.5 -13.5t-4.5 -34t-11.5 -48t-23.5 -50.5t-38 -48t-57.5 -34t-79.5 -14z" />
<glyph unicode="&#xe7;" horiz-adv-x="743" d="M113 270v324q0 6 0.5 15.5t4.5 37.5t11.5 53.5t23.5 56.5t38 53.5t57.5 38t79.5 15.5v-862q-44 0 -79.5 15t-57.5 38.5t-38 52t-23.5 57t-11.5 52t-4 38.5zM209 -172l442 442v-268h-192l-174 -174h-76zM383 864h268v-270z" />
<glyph unicode="&#xe8;" d="M113 270v324q0 6 0.5 15.5t4.5 37.5t11.5 53.5t23.5 56.5t38 53.5t57.5 38t79.5 15.5v-862q-44 0 -79.5 15t-57.5 38.5t-38 52t-23.5 57t-11.5 52t-4 38.5zM264 1149l35 41l248 -209l-35 -41zM436 2v215h213q-1 -4 -2 -12t-7.5 -30.5t-15.5 -42.5t-26 -45t-38 -43 t-53.5 -30t-70.5 -12zM436 379v485q44 0 79.5 -13.5t57.5 -35t38 -47t23.5 -51.5t11.5 -47.5t4 -35.5l1 -13q0 -5 -0.5 -13.5t-4.5 -34t-11.5 -48t-23.5 -50.5t-38 -48t-57.5 -34t-79.5 -14z" />
<glyph unicode="&#xe9;" d="M113 270v324q0 6 0.5 15.5t4.5 37.5t11.5 53.5t23.5 56.5t38 53.5t57.5 38t79.5 15.5v-862q-44 0 -79.5 15t-57.5 38.5t-38 52t-23.5 57t-11.5 52t-4 38.5zM215 981l250 209l35 -41l-250 -209zM436 2v215h213q-1 -4 -2 -12t-7.5 -30.5t-15.5 -42.5t-26 -45t-38 -43 t-53.5 -30t-70.5 -12zM436 379v485q44 0 79.5 -13.5t57.5 -35t38 -47t23.5 -51.5t11.5 -47.5t4 -35.5l1 -13q0 -5 -0.5 -13.5t-4.5 -34t-11.5 -48t-23.5 -50.5t-38 -48t-57.5 -34t-79.5 -14z" />
<glyph unicode="&#xea;" d="M113 270v324q0 6 0.5 15.5t4.5 37.5t11.5 53.5t23.5 56.5t38 53.5t57.5 38t79.5 15.5v-862q-44 0 -79.5 15t-57.5 38.5t-38 52t-23.5 57t-11.5 52t-4 38.5zM209 971l172 174l174 -174h-76l-98 98l-96 -98h-76zM436 2v215h213q-1 -4 -2 -12t-7.5 -30.5t-15.5 -42.5 t-26 -45t-38 -43t-53.5 -30t-70.5 -12zM436 379v485q44 0 79.5 -13.5t57.5 -35t38 -47t23.5 -51.5t11.5 -47.5t4 -35.5l1 -13q0 -5 -0.5 -13.5t-4.5 -34t-11.5 -48t-23.5 -50.5t-38 -48t-57.5 -34t-79.5 -14z" />
<glyph unicode="&#xeb;" d="M113 270v324q0 6 0.5 15.5t4.5 37.5t11.5 53.5t23.5 56.5t38 53.5t57.5 38t79.5 15.5v-862q-44 0 -79.5 15t-57.5 38.5t-38 52t-23.5 57t-11.5 52t-4 38.5zM195 1038q0 28 19.5 48t47.5 20t47 -20t19 -48t-19 -47.5t-47 -19.5t-47.5 19.5t-19.5 47.5zM436 2v215h213 q-1 -4 -2 -12t-7.5 -30.5t-15.5 -42.5t-26 -45t-38 -43t-53.5 -30t-70.5 -12zM436 379v485q44 0 79.5 -13.5t57.5 -35t38 -47t23.5 -51.5t11.5 -47.5t4 -35.5l1 -13q0 -5 -0.5 -13.5t-4.5 -34t-11.5 -48t-23.5 -50.5t-38 -48t-57.5 -34t-79.5 -14zM436 1038q0 28 19.5 48 t48.5 20q27 0 46 -20t19 -48t-18.5 -47.5t-46.5 -19.5q-29 0 -48.5 19.5t-19.5 47.5z" />
<glyph unicode="&#xec;" horiz-adv-x="507" d="M113 1149l34 41l248 -209l-33 -41zM117 2v862h215v-862h-215z" />
<glyph unicode="&#xed;" horiz-adv-x="507" d="M113 981l249 209l33 -41l-248 -209zM172 2v862h217v-862h-217z" />
<glyph unicode="&#xee;" horiz-adv-x="573" d="M113 971l174 174l174 -174h-78l-96 98l-99 -98h-75zM178 2v862h215v-862h-215z" />
<glyph unicode="&#xef;" horiz-adv-x="600" d="M113 1038q0 28 19.5 48t47.5 20t47 -20t19 -48t-19 -47.5t-47 -19.5t-47.5 19.5t-19.5 47.5zM193 2v862h215v-862h-215zM354 1038q0 28 19 48t47 20q29 0 48 -20t19 -48t-19 -47.5t-48 -19.5q-28 0 -47 19.5t-19 47.5z" />
<glyph unicode="&#xf1;" d="M113 2v862h215v-862h-215zM221 1026v53h215v-53h107v-55h-215v55h-107zM436 2v862q60 0 104.5 -28t64.5 -67.5t31.5 -79t13.5 -67.5l1 -28v-592h-215z" />
<glyph unicode="&#xf2;" d="M113 270v324q0 6 0.5 15.5t4.5 37.5t11.5 53.5t23.5 56.5t38 53.5t57.5 38t79.5 15.5v-862q-44 0 -79.5 15t-57.5 38.5t-38 52t-23.5 57t-11.5 52t-4 38.5zM264 1149l35 41l248 -209l-35 -41zM436 2v862q60 0 104.5 -28t64.5 -67.5t31.5 -79t13.5 -67.5l1 -28v-324 q0 -6 -0.5 -15.5t-4.5 -37.5t-11.5 -53t-23.5 -56t-38 -53.5t-57.5 -37.5t-79.5 -15z" />
<glyph unicode="&#xf3;" d="M113 270v324q0 6 0.5 15.5t4.5 37.5t11.5 53.5t23.5 56.5t38 53.5t57.5 38t79.5 15.5v-862q-44 0 -79.5 15t-57.5 38.5t-38 52t-23.5 57t-11.5 52t-4 38.5zM215 981l250 209l35 -41l-250 -209zM436 2v862q60 0 104.5 -28t64.5 -67.5t31.5 -79t13.5 -67.5l1 -28v-324 q0 -6 -0.5 -15.5t-4.5 -37.5t-11.5 -53t-23.5 -56t-38 -53.5t-57.5 -37.5t-79.5 -15z" />
<glyph unicode="&#xf4;" d="M113 270v324q0 6 0.5 15.5t4.5 37.5t11.5 53.5t23.5 56.5t38 53.5t57.5 38t79.5 15.5v-862q-44 0 -79.5 15t-57.5 38.5t-38 52t-23.5 57t-11.5 52t-4 38.5zM209 971l172 174l174 -174h-76l-98 98l-96 -98h-76zM436 2v862q60 0 104.5 -28t64.5 -67.5t31.5 -79t13.5 -67.5 l1 -28v-324q0 -6 -0.5 -15.5t-4.5 -37.5t-11.5 -53t-23.5 -56t-38 -53.5t-57.5 -37.5t-79.5 -15z" />
<glyph unicode="&#xf5;" d="M113 270v324q0 6 0.5 15.5t4.5 37.5t11.5 53.5t23.5 56.5t38 53.5t57.5 38t79.5 15.5v-862q-44 0 -79.5 15t-57.5 38.5t-38 52t-23.5 57t-11.5 52t-4 38.5zM221 1026v53h215v-53h107v-55h-215v55h-107zM436 2v862q60 0 104.5 -28t64.5 -67.5t31.5 -79t13.5 -67.5l1 -28 v-324q0 -6 -0.5 -15.5t-4.5 -37.5t-11.5 -53t-23.5 -56t-38 -53.5t-57.5 -37.5t-79.5 -15z" />
<glyph unicode="&#xf6;" d="M113 270v324q0 6 0.5 15.5t4.5 37.5t11.5 53.5t23.5 56.5t38 53.5t57.5 38t79.5 15.5v-862q-44 0 -79.5 15t-57.5 38.5t-38 52t-23.5 57t-11.5 52t-4 38.5zM195 1038q0 28 19.5 48t47.5 20t47 -20t19 -48t-19 -47.5t-47 -19.5t-47.5 19.5t-19.5 47.5zM436 2v862 q60 0 104.5 -28t64.5 -67.5t31.5 -79t13.5 -67.5l1 -28v-324q0 -6 -0.5 -15.5t-4.5 -37.5t-11.5 -53t-23.5 -56t-38 -53.5t-57.5 -37.5t-79.5 -15zM436 1038q0 28 19.5 48t48.5 20q27 0 46 -20t19 -48t-18.5 -47.5t-46.5 -19.5q-29 0 -48.5 19.5t-19.5 47.5z" />
<glyph unicode="&#xf9;" d="M113 270v594h215v-862q-44 0 -79.5 15t-57.5 38.5t-38 52t-23.5 57t-11.5 52t-4 38.5zM270 1149l35 41l248 -209l-35 -41zM436 2v862h215v-862h-215z" />
<glyph unicode="&#xfa;" d="M113 270v594h215v-862q-44 0 -79.5 15t-57.5 38.5t-38 52t-23.5 57t-11.5 52t-4 38.5zM231 981l250 209l33 -41l-248 -209zM436 2v862h215v-862h-215z" />
<glyph unicode="&#xfb;" d="M113 270v594h215v-862q-44 0 -79.5 15t-57.5 38.5t-38 52t-23.5 57t-11.5 52t-4 38.5zM209 971l172 174l174 -174h-76l-98 98l-96 -98h-76zM436 2v862h215v-862h-215z" />
<glyph unicode="&#xfc;" d="M113 270v594h215v-862q-44 0 -79.5 15t-57.5 38.5t-38 52t-23.5 57t-11.5 52t-4 38.5zM195 1038q0 28 19.5 48t47.5 20t47 -20t19 -48t-19 -47.5t-47 -19.5t-47.5 19.5t-19.5 47.5zM436 2v862h215v-862h-215zM436 1038q0 28 19.5 48t48.5 20q27 0 46 -20t19 -48 t-18.5 -47.5t-46.5 -19.5q-29 0 -48.5 19.5t-19.5 47.5z" />
<glyph unicode="&#xfd;" horiz-adv-x="890" d="M113 379v485h215v-755q-60 0 -104.5 28t-64.5 67.5t-31.5 79t-13.5 67.5zM256 -375l360 1239h224l-359 -1239h-225zM328 981l247 209l35 -41l-250 -209z" />
<glyph unicode="&#xff;" horiz-adv-x="890" d="M113 379v485h215v-755q-60 0 -104.5 28t-64.5 67.5t-31.5 79t-13.5 67.5zM256 -375l360 1239h224l-359 -1239h-225zM287 1038q0 28 19 48t46 20q28 0 48 -20t20 -48t-20 -47.5t-48 -19.5t-46.5 19.5t-18.5 47.5zM526 1038q0 28 20 48t48 20t48 -20t20 -48t-20 -47.5 t-48 -19.5t-48 19.5t-20 47.5z" />
<glyph unicode="&#x152;" horiz-adv-x="1280" d="M154 270v756q0 55 13 99t31.5 71.5t44.5 47.5t47.5 29t45 14.5t32 6t13.5 0.5h12v-1292h-12q-5 0 -13.5 0.5t-32 6t-45 14.5t-47.5 29t-44.5 47.5t-31.5 71.5t-13 99zM530 270v1024h13q5 0 13.5 -0.5t32 -6t45 -14.5t47.5 -29t44.5 -47.5t31.5 -71.5t13 -99v-756v-268 h-12q-10 0 -25.5 1.5t-54.5 16t-69 40t-54.5 80.5t-24.5 130zM823 729q0 55 39.5 95t95.5 40q57 0 96.5 -39.5t39.5 -95.5q0 -57 -39.5 -96t-96.5 -39q-56 0 -95.5 39t-39.5 96zM825 2l322 322v-322h-322zM825 1294h322v-323z" />
<glyph unicode="&#x153;" horiz-adv-x="1087" d="M113 270v324q0 6 0.5 15.5t4.5 37.5t11.5 53.5t23.5 56.5t38 53.5t57.5 38t79.5 15.5v-862q-44 0 -79.5 15t-57.5 38.5t-38 52t-23.5 57t-11.5 52t-4 38.5zM436 255v15v594q60 0 104.5 -28t64.5 -67.5t31.5 -79t13.5 -67.5l1 -28v-592q-44 0 -79.5 15t-57.5 38.5t-38 52 t-23.5 57t-11.5 52t-5 38.5zM760 2v215h211q-1 -4 -2 -12t-7.5 -30.5t-15.5 -42.5t-26 -45t-37.5 -43t-52.5 -30t-70 -12zM760 379v485q44 0 79.5 -13.5t57.5 -35t38 -47t23.5 -51.5t11.5 -47.5t4 -35.5l1 -13q0 -5 -0.5 -13.5t-4.5 -34t-11.5 -48t-23.5 -50.5t-38 -48 t-57.5 -34t-79.5 -14z" />
<glyph unicode="&#x178;" horiz-adv-x="931" d="M102 971v323h240v-592h-12q-9 0 -25 1.5t-55 16.5t-69 40t-54.5 80.5t-24.5 130.5zM178 2l436 1292h267l-437 -1292h-266zM287 1468q0 28 19.5 48t47.5 20t47 -20t19 -48t-19 -46.5t-47 -18.5t-47.5 18.5t-19.5 46.5zM549 1468q0 28 19 48t46 20q28 0 48 -20t20 -48 q0 -27 -20 -46t-48 -19t-46.5 18.5t-18.5 46.5z" />
<glyph unicode="&#x2000;" horiz-adv-x="809" />
<glyph unicode="&#x2001;" horiz-adv-x="1618" />
<glyph unicode="&#x2002;" horiz-adv-x="809" />
<glyph unicode="&#x2003;" horiz-adv-x="1618" />
<glyph unicode="&#x2004;" horiz-adv-x="539" />
<glyph unicode="&#x2005;" horiz-adv-x="404" />
<glyph unicode="&#x2006;" horiz-adv-x="269" />
<glyph unicode="&#x2007;" horiz-adv-x="269" />
<glyph unicode="&#x2008;" horiz-adv-x="202" />
<glyph unicode="&#x2009;" horiz-adv-x="323" />
<glyph unicode="&#x200a;" horiz-adv-x="89" />
<glyph unicode="&#x2010;" horiz-adv-x="503" d="M51 190v107h402v-107h-402z" />
<glyph unicode="&#x2011;" horiz-adv-x="503" d="M51 190v107h402v-107h-402z" />
<glyph unicode="&#x2012;" horiz-adv-x="503" d="M51 190v107h402v-107h-402z" />
<glyph unicode="&#x2013;" horiz-adv-x="503" d="M51 190v107h402v-107h-402z" />
<glyph unicode="&#x2014;" horiz-adv-x="811" d="M51 190v107h709v-107h-709z" />
<glyph unicode="&#x2018;" horiz-adv-x="487" d="M51 1026l324 322v-322h-324z" />
<glyph unicode="&#x2019;" horiz-adv-x="487" d="M113 971v323h323z" />
<glyph unicode="&#x201a;" horiz-adv-x="2048" />
<glyph unicode="&#x201c;" horiz-adv-x="802" d="M51 1026l324 322v-322h-324zM428 1026l324 322v-322h-324z" />
<glyph unicode="&#x201d;" horiz-adv-x="802" d="M51 971v323h324zM428 971v323h324z" />
<glyph unicode="&#x201e;" horiz-adv-x="2048" />
<glyph unicode="&#x2026;" horiz-adv-x="1126" d="M51 135q0 57 39 96t96 39q56 0 96 -39t40 -96q0 -55 -40 -94t-96 -39q-57 0 -96 38.5t-39 94.5zM428 135q0 57 39.5 96t95.5 39t95.5 -39t39.5 -96q0 -55 -39.5 -94t-95.5 -39t-95.5 39t-39.5 94zM805 135q0 57 39.5 96t95.5 39t95.5 -39t39.5 -96q0 -55 -39.5 -94 t-95.5 -39t-95.5 39t-39.5 94z" />
<glyph unicode="&#x202f;" horiz-adv-x="323" />
<glyph unicode="&#x2039;" horiz-adv-x="2048" />
<glyph unicode="&#x203a;" horiz-adv-x="2048" />
<glyph unicode="&#x205f;" horiz-adv-x="404" />
<glyph unicode="&#x20ac;" horiz-adv-x="2048" />
<glyph unicode="&#x25fc;" horiz-adv-x="860" d="M0 0v860h860v-860h-860z" />
<glyph unicode="&#xfb01;" horiz-adv-x="2048" />
<glyph unicode="&#xfb02;" horiz-adv-x="2048" />
</font>
</defs>
</svg>
